Skip to main content

Robyn Hitchcock Live at Seattle Center Coliseum on 1988-09-05




01. Intro
02. I Often Dream Of Trains
03. Sometimes I Wish I Was A Pretty Girl
04. Bass
05. Airscape
06. Tropical Flesh Mandela
07. I'm Only You
08. Uncorrected Personality Traits
09. Lady Waters And The Hooded One
10. Balloon Man (cuts in)
11. Chinese Man
12. Out Of The Picture
13. The man With The Lightbulb Head
14. Listening To The Higsons (cuts in)


Collection RobynHitchcock
Band/Artist Robyn Hitchcock
Date September 5, 1988
Venue Seattle Center Coliseum
Location Seattle, WA

Source [SBD] + [AK40 (DIN, clamped to balcony, ROC) > LC3 > KM100] >> R-44 (Oade CM) >> WAV @ 24bit/44.1KHz
Lineage Nakamichi CR-7A>PreSonus FireStudio Project>Adobe Audition 3.0>Cdwave editor>FLAC frontend 1.7.1
Taped by JEMS
Transferred by Mike Ziegler


Notes

Camper Van Beethoven set:
http://www.archive.org/details/CVB1988-09-05.JEMS


Source: Audience
Lineage: ANA(M)>WAV [96kHz/24bit]>WAV [44.1kHz/16bit]>FLAC [Level 8]
Transfer: Nakamichi CR-7A>PreSonus FireStudio Project>Adobe Audition 3.0>Cdwave editor>FLAC frontend 1.7.1
Taping Gear: Sony ECM-939>Sony WM-D6C
Taped By: JEMS
Transferred By: Mike Ziegler

Band Members:
Robyn Hitchcock - vocals, guitar

The Egyptians
Andy Metcalfe - bass, keyboards
Morris Windsor - drums

Length: 55:32

Notes:
JEMS master recording. Very good to excellent sounding recording. This show captures Robyn & The Egyptianstouring in support of their album Globe of Frogs, their first major label release. This is a good representative show Robyn at this point in his career with a lot of unique between song stories told during this show. Camper Van Beethoven was also on the bill this night.

SHNTOOL:
length expanded size cdr WAVE problems fmt ratio filename
0:41.65 7385324 B --- -- ---xx flac 0.5068 RobynHitchcock1988-09-05t01.flac
2:35.40 27436124 B --- -- ---xx flac 0.5122 RobynHitchcock1988-09-05t02.flac
2:20.01 24698396 B --- -- ---xx flac 0.5945 RobynHitchcock1988-09-05t03.flac
4:47.62 50772668 B --- -- ---xx flac 0.5710 RobynHitchcock1988-09-05t04.flac
5:41.13 60183020 B --- -- ---xx flac 0.5814 RobynHitchcock1988-09-05t05.flac
4:03.27 42928748 B --- -- ---xx flac 0.5842 RobynHitchcock1988-09-05t06.flac
6:05.67 64543628 B --- -- ---xx flac 0.5768 RobynHitchcock1988-09-05t07.flac
3:21.43 35557580 B --- -- ---xx flac 0.4872 RobynHitchcock1988-09-05t08.flac
5:58.29 63219452 B --- -- ---xx flac 0.5939 RobynHitchcock1988-09-05t09.flac
5:05.10 53825564 B --- -- ---xx flac 0.5524 RobynHitchcock1988-09-05t10.flac
4:14.12 44833868 B --- -- ---xx flac 0.5656 RobynHitchcock1988-09-05t11.flac
4:00.61 42479516 B --- -- ---xx flac 0.5679 RobynHitchcock1988-09-05t12.flac
3:03.56 32412956 B --- -- ---xx flac 0.5604 RobynHitchcock1988-09-05t13.flac
3:33.21 37622636 B --- -- ---xx flac 0.6199 RobynHitchcock1988-09-05t14.flac
55:32.57 587899480 B 0.5687 (14 files)

Reviews

There are no reviews yet. Be the first one to write a review.
Download Options
318.8M
FLAC
648.0K
JPEG
31.6M
OGG VORBIS
2.8K
TEXT
29.0K
TORRENT
72.2M
VBR M3U
72.2M
VBR MP3
-
VBR ZIP
Uploaded by
morst
on 2/3/2011
Views
953
Favorites
3
PEOPLE ALSO FOUND
Robyn Hitchcock
by Robyn Hitchcock
1,013
1
0
Source: Sony ECM-939>Sony WM-D6C > MCAS
Robyn Hitchcock
by Robyn Hitchcock
620
2
0
Source: Sony ECM-939>Sony WM-D6C > MCAS
Robyn Hitchcock
by Robyn Hitchcock
953
3
0
Source: [SBD] + [AK40 (DIN, clamped to balcony, ROC) > LC3 > KM100] >> R-44 (Oade CM) >> WAV @ 24bit/44.1KHz
Mother Hips
by Mother Hips
68
0
0
Tea Leaf Green
by Tea Leaf Green
635
3
0
Source: Neumann KM140's (ORTF pair) > Beyer MV100 > Zoom H2
The Sound of Urchin
by The Sound of Urchin
359
1
0
Source: SBD + Audience Matrix
Backyard Tire Fire
by Backyard Tire Fire
389
1
0
Source: matrix
Backyard Tire Fire
by Backyard Tire Fire
2,394
1
0
Source: KM140's > Lunatec V3 > + SBD > Edirol R44 @24-bit/48kHz
Backyard Tire Fire
by Backyard Tire Fire
2,454
1
0
Source: Neumann KM140's > Beyer MV100 > Zoom H2 @24-bit/48kHz WAV, mics on 8' stand in back of room
Community Audio
by Vladimir Noskov
10
1
0